BIN Datei brennen ohne Cue!?!?

Dieses Thema im Forum "Rippen & Konvertieren" wurde erstellt von v!gg0, 7. Januar 2006 .

Schlagworte:
Status des Themas:
Es sind keine weiteren Antworten möglich.
  1. Diese Seite verwendet Cookies. Wenn du dich weiterhin auf dieser Seite aufhältst, akzeptierst du unseren Einsatz von Cookies. Weitere Informationen
  1. #1 7. Januar 2006
    hi,
    wie brenne ich eine BIN datei ohne die dazugehörige Cue datei zu besitzen?
    oder kann ich eine Cue datei selber machen?
    plz help

    10 is drin!


    mfg v!gg0
     

  2. Anzeige
  3. #2 7. Januar 2006
    einfach mit Alcohol 120% oder DVD Decrypter
     
  4. #3 7. Januar 2006
    ich habs jetzt mit alcohol 120% gebrannt aber es klappt nicht
    es ist die erste cd von jarhead aber es läuft net aufm dvd player.
    wie muss ich das brennen damit ich das gucken kann?


    mfg v!gg0
     
  5. #4 7. Januar 2006
    Googel einfach mal nach cuemaker,iss ganz easy!Dem prog dann die bin geben, der erstellt dir eine cue datei!Hoffe ich konnte dir helfen,

    MfG STINGRAY
     
  6. #5 7. Januar 2006
    Oder schau mal in der Tutorial-Sektion nach: bin ohne cue auf MVCD brennen. Du solltest vielleicht noch angeben, in welchem Format du die bin-Datei brennen möchtest.
     
  7. #6 8. Januar 2006
    @ v!gg0 , wenn du die selbe version wie ich hast, ist für die 2. CD eine .cue dabei gewesen. kopiere die trcd-jarheadb.cue irgendwo hin , benenne sie um in trcd-jarheada.cue , öffne sie mit dem Editor und ändere > FILE "trcd-jarheadb.bin" BINARY < in > FILE "trcd-jarheada.bin" BINARY < (beides ohne die > <) , die .cue für CD1 zurückkopieren und nun sollte es funzen.
     
  8. #7 9. Januar 2006
    Falls du die gleiche Version hast wie ich, dann müsste dass hier in der .cue für CD1 stehen:

    FILE "trcd-jarheada.bin" BINARY
    TRACK 01 MODE2/2352
    INDEX 01 00:00:00
    TRACK 02 MODE2/2352
    INDEX 01 00:06:56

    Und das bei CD2:

    FILE "trcd-jarheadb.bin" BINARY
    TRACK 01 MODE2/2352
    INDEX 01 00:00:00
    TRACK 02 MODE2/2352
    INDEX 01 00:06:56

    Ich hoffe ich kann dir damit helfen.

    mfg nahash!
     
  9. #8 9. Januar 2006
    besorg dir die neuste version von clonecd, der brennt dir deine bin ohne cue !
     
  10. #9 10. Januar 2006
    also ich machs immer so die bin datei mit dämon tools mounten und dann nero von CD zu CD kopieren lassen das geht bei mir 8)
     
  11. #10 10. Januar 2006

    @TheOne, das ist zu umständlich, einfach die Bin brennen mit DVD Decrypter oder Clone CD/DVD

    @Arthur030, Mit ISO Buster kann man net brennen!
    Er fragte ja wie er ne BIN datei brennen kann ohne Cue.
    und nach deiem vorschlag müsste er es erst entpacken und dann evtl. als MVCD oder Daten ISO brennen = zu umständlich!

    Einfach die BIN brennen wie ich es schon gesagt hab am Anfang des Freds und wiederholt euch net alle 20x

    @Mod oder @Fredstarter, close mal den Fred hier! es gibt schon genug Antworten
     
  12. #11 10. Januar 2006
    Thema is durch!
    ~closed

    MfG
    Flofl
     

  13. Videos zum Thema
Die Seite wird geladen...
Similar Threads - BIN Datei brennen
  1. Antworten:
    5
    Aufrufe:
    1.904
  2. Antworten:
    8
    Aufrufe:
    337
  3. *.bin datei brennen

    necabo , 22. Juli 2006 , im Forum: Rippen & Konvertieren
    Antworten:
    1
    Aufrufe:
    257
  4. Antworten:
    3
    Aufrufe:
    387
  5. Antworten:
    2
    Aufrufe:
    275