Inhalt von .cue's

Dieses Thema im Forum "Rippen & Konvertieren" wurde erstellt von Burn2410, 5. Januar 2005 .

Schlagworte:
Status des Themas:
Es sind keine weiteren Antworten möglich.
  1. Diese Seite verwendet Cookies. Wenn du dich weiterhin auf dieser Seite aufhältst, akzeptierst du unseren Einsatz von Cookies. Weitere Informationen
  1. #1 5. Januar 2005
    Hallo,
    ich hab mal ne kleine Frage.

    In letzter Zeit habe ich häufiger solche Inhalte in einer .cue datei gefunden:

    FILE "tlr-a.bin" BINARY
    TRACK 01 MODE2/2352
    FLAGS DCP
    INDEX 01 00:00:00
    TRACK 02 MODE2/2352
    FLAGS DCP
    INDEX 00 00:04:00
    INDEX 01 00:06:00
    INDEX 02 07:40:36
    INDEX 03 18:29:11
    INDEX 04 27:44:42
    INDEX 05 35:49:35
    INDEX 06 43:43:60
    INDEX 07 54:24:08
    INDEX 08 60:34:61

    Wenn ich versuche diese Datei zubrennen gibt mir Nero ne Fehlermeldug und ich kann das brennen vergessen, so lange ich keinen neustart mache. Auch mit Alcohol kann ich keine CD's mehr brennen.

    Ändere ich den Inhalt der .cue in:

    FILE "tlr-a.bin" BINARY
    TRACK 01 MODE2/2352
    INDEX 01 00:00:00
    TRACK 02 MODE2/2352
    INDEX 01 00:06:56

    Kann ich die File normal brennen. Was heißt das überhaupt in der 5. Zeile: INDEX 01 00:06:56 ? Also die Zeitangabe?

    Jetzt zu meiner Frage was soll der andere Mist in der .cue File?
    Wer brauch den?
    Was soll das?

    THX für eure Comments
     

  2. Anzeige
  3. #2 5. Januar 2005
    Das wichtigste steht in der ersten Zeile weil das ist die Angabe wo die Bin Datei liegt also das eigentliche Image ich denke mal Du hast Dein Image einfach umbenannt desshalb meckert Nero weil Nero findet die Datei net Also mal gucken wie die Datei heißt die *****.bin und die in der ersten Zeile genauso reinschreiben bei der *****.cue

    Bsp:

    Dein Datei heißt Spass.bin

    Dein e jetzige Cue:

    FILE "tlr-a.bin" BINARY
    TRACK 01 MODE2/2352
    FLAGS DCP
    INDEX 01 00:00:00
    TRACK 02 MODE2/2352
    FLAGS DCP
    INDEX 00 00:04:00
    INDEX 01 00:06:00
    INDEX 02 07:40:36
    INDEX 03 18:29:11
    INDEX 04 27:44:42
    INDEX 05 35:49:35
    INDEX 06 43:43:60
    INDEX 07 54:24:08
    INDEX 08 60:34:61

    Also musst Du dir erste zeile ändern:

    FILE "Spass.bin" BINARY
    TRACK 01 MODE2/2352
    FLAGS DCP
    INDEX 01 00:00:00
    TRACK 02 MODE2/2352
    FLAGS DCP
    INDEX 00 00:04:00
    INDEX 01 00:06:00
    INDEX 02 07:40:36
    INDEX 03 18:29:11
    INDEX 04 27:44:42
    INDEX 05 35:49:35
    INDEX 06 43:43:60
    INDEX 07 54:24:08
    INDEX 08 60:34:61

    die anderen angaben beschreiben lediglich wo die Dateie liegen auf der CD wieviele Tracks etc. eigentlich irrelevant und sollte man auch nichts dran ädnern nur oben in der ersten Zeile wie gesagt ;)
     
  4. #3 5. Januar 2005
    Ganz genau _Alex_ :)in der CUE muß der name von der Bin oder Iso usw.
    drin stehen und müßen im selben Ordner sein,also die Bin/Iso und Cue :)


    cu Blade
     
  5. #4 5. Januar 2005
    nene der Name in der ersten Zeile stimmte schon es ging einzig und allein um den teil der unterhalb der 5 Zeile steht. Nachdem ich den "Anhang" gelöscht hatte und meinen PC neugestartet hatte konnte ich die File brennen.
     

  6. Videos zum Thema
Die Seite wird geladen...
Similar Threads - Inhalt cue's
  1. Antworten:
    4
    Aufrufe:
    1.497
  2. Antworten:
    0
    Aufrufe:
    1.107
  3. Antworten:
    1
    Aufrufe:
    1.166
  4. Antworten:
    1
    Aufrufe:
    813
  5. Origin BF4 Premium Inhalte neu laden

    tMoe , 8. September 2014 , im Forum: Gamer Support
    Antworten:
    0
    Aufrufe:
    948